#TITLE:Reverse;
#SUBTITLE:;
#ARTIST:TVXQ;
#TITLETRANSLIT:Reverse;
#SUBTITLETRANSLIT:;
#ARTISTTRANSLIT:Dong Bang Shin Ki;
#CREDIT:;
#BANNER:Reverse-bn.png;
#BACKGROUND:Reverse-bg.png;
#LYRICSPATH:;
#CDTITLE:pm4cd.png;
#MUSIC:Reverse.mp3;
#OFFSET:0.040;
#SAMPLESTART:71.280;
#SAMPLELENGTH:20.000;
#SELECTABLE:YES;
#BPMS:0.000=115.000,15.500=230.000,17.375=115.000;
#STOPS:;
#BGCHANGES:;
// cache tags:
#FIRSTBEAT:8.500;
#LASTBEAT:489.000;
#SONGFILENAME:Songs/Music V.I.P ^_^/Reverse/Reverse.sm;
#HASMUSIC:1;
#HASBANNER:1;
#MUSICLENGTH:255.727;
// end cache tags

//---------------dance-single - ----------------
#NOTES:
     dance-single:
     :
     Hard:
     10:
     0.875,0.884,1.000,0.242,0.489,1112.000,321.000,62.000,0.000,190.000:
0000
0000
0000
0000
,
0000
0000
0000
0000
,
0000
0000
1100
0000
0010
0001
0010
0000
0101
0000
0000
0000
1000
0000
0011
0100
,
0000
0000
0000
0000
0110
0000
0000
0000
1000
1000
1000
1000
2000
0000
0000
0000
0000
0000
0000
0000
0000
0000
0000
0000
3100
0000
0000
0000
0110
0000
0000
0000
,
0000
0000
0000
0000
0010
0010
0101
0000
0100
0000
0001
0000
0010
0000
0100
0000
,
0010
0000
0000
0000
0101
0000
0010
0000
0000
0000
0000
0000
1000
0000
0000
0000
0001
0000
0000
0000
1000
0000
0000
0000
0001
0001
0001
0001
0001
0001
0000
0000
,
1000
0000
0100
0000
0010
0000
2200
3300
0010
0100
0010
0000
0000
0000
0022
0033
,
1000
0000
0000
0000
0000
0000
1000
0000
0000
0000
0000
0000
2200
0000
3300
0000
0010
0010
0010
0010
0010
0000
0000
0000
0101
0000
0000
0000
0010
0000
0000
0000
,
1000
0000
0000
0000
0100
0000
0000
0000
0001
0000
0000
0000
0100
0000
0000
0000
0001
0000
0000
0000
1000
0000
0001
0001
0001
0000
0000
0000
0100
0000
0000
0000
,
0010
0000
0001
0010
0000
0000
0100
0000
0010
0000
1001
0000
0200
0000
0020
0000
,
0000
0000
0000
1331
0100
0001
1010
0001
,
0100
0000
1010
0101
0000
0000
0220
0000
1000
0000
0001
0000
1000
0000
0001
0000
,
1000
0000
1001
1001
0000
0000
1331
0000
1000
0100
0001
0010
1000
0100
0001
0010
,
1000
0100
0001
0010
1000
0100
1001
0000
0010
0000
0100
0000
1001
0000
0100
0000
,
0001
0100
0001
1100
0010
0001
0011
0100
,
0010
0000
0101
1010
0000
0000
2002
0000
0100
0000
0010
0000
0100
0000
0010
0000
,
0100
0000
0110
0110
0000
0000
3113
0000
0010
0001
0100
1000
0010
0001
0100
1000
,
0010
0001
0100
1000
0010
0001
1010
0000
0100
0000
0001
0000
1100
0000
0010
0000
,
0100
1001
0100
0011
0100
0001
1001
0010
,
0101
0001
0100
0011
1000
0100
1001
1000
,
0010
0100
0000
1011
0100
0001
0110
1000
,
0101
0000
0110
1001
0000
0000
0100
0000
0001
0000
0010
0000
1100
0000
0010
0000
,
1001
0010
1100
0011
0000
0000
0101
0000
0010
0000
0001
0000
1010
0000
0100
0000
,
0110
1000
0011
0100
1000
0010
1001
0100
,
0101
0010
1000
0111
1000
0001
0110
0001
,
1010
0000
0011
1100
0000
0000
0110
0000
0001
0000
1000
0000
0101
0000
1000
0000
,
0001
0100
0010
2012
0100
0010
0100
0000
,
0010
0000
0110
3113
0000
0000
0221
0000
1000
0000
0001
0000
1000
0000
0000
0000
,
0001
0000
1001
1331
0000
0000
1100
0000
0010
0000
0001
0000
1010
0000
0100
0000
,
1001
0100
1000
0101
0010
0001
1010
0100
,
0010
0001
0100
1022
0100
1000
0100
0000
,
1000
0000
1100
1133
0000
0000
2201
0000
0010
0000
0001
0000
0010
0000
0000
0000
,
0001
0000
0011
0011
0000
0000
3311
0000
0100
0000
1000
0000
0101
0000
1000
0000
,
0110
1000
0010
1100
0010
0100
1001
0100
,
0010
1000
0001
1111
0100
0001
0110
1000
,
0101
0010
0001
1021
0100
0001
1100
0001
,
0101
0000
1000
0000
0100
0000
1031
0000
1100
0110
0011
1000
0001
0100
0010
1000
,
0001
0100
0010
1000
0001
0100
1011
0000
0100
0000
0001
0000
1010
0000
0100
0000
,
0010
0001
0010
1101
0010
0100
1001
0100
,
1010
0000
0011
0110
0000
0000
2110
0000
0100
0000
0010
0000
0011
0000
0100
0000
,
0011
0000
0101
0000
0010
0000
3111
1000
0010
0100
0001
1000
0010
0100
0001
1000
,
0010
0100
0001
0100
0010
1000
0101
0010
0001
0010
1100
0010
0001
0010
0101
0010
,
0100
0010
1001
0000
0100
0000
0001
0000
0010
0001
0000
0000
0100
0000
0010
0000
,
0100
1000
0000
0000
0001
0000
1010
0000
1010
0000
1010
0000
0101
0000
0101
0000
,
0101
0101
0101
1111
1000
0010
0101
1000
,
0011
0000
0100
0010
0000
0000
0101
0010
0001
0010
0100
0010
1100
0010
0100
0010
,
0001
0010
0100
1000
0100
0000
1111
0000
1000
0000
0010
0000
0101
0000
0010
0000
,
1100
0000
0011
0101
0000
0000
0110
0000
0001
0000
1000
0000
0101
0000
1000
0000
,
0011
0110
2100
0220
0000
3000
1331
0000
0010
0000
0100
0000
0011
0000
0100
0000
,
1001
0000
0101
0011
0000
0000
1000
0000
0001
0000
0010
0000
1100
0000
0010
0000
,
0101
1000
0001
1110
0001
0100
0011
1000
,
0101
0000
1001
0110
0000
0000
1100
0000
0010
0000
1000
0000
0011
0000
0100
0000
,
0010
0000
0100
0000
1000
0000
1111
0000
1000
0000
0110
0000
1000
0000
0001
0001
,
0100
0100
0001
0001
0100
0100
1011
0000
0100
0000
0001
0000
1010
0000
0100
0100
,
1000
1000
0100
0100
1000
1000
0111
0000
1000
0000
0001
0000
0110
0000
0001
0001
,
0100
0100
0010
0010
0001
0001
1110
0000
0001
0000
0100
0000
1010
0000
0100
0100
,
0010
0010
0001
0001
0010
0010
1101
0000
0010
0000
1000
0000
0101
0000
0010
0010
,
0001
0001
0100
0100
0010
0010
1101
0000
0010
0000
0001
0000
1100
0000
0001
0001
,
0010
0010
0100
0100
1000
1000
0111
0000
1000
0000
0010
0000
0101
0000
0010
0010
,
0001
0001
0010
0010
0100
0100
1011
0000
0200
0000
0020
0000
0000
0000
1000
0001
,
0000
1000
0001
1000
0000
0001
2332
0000
0100
0000
0010
0000
0100
0000
0000
0000
,
0010
0000
0110
3113
0000
0000
0221
0000
1000
0000
0001
0000
1000
0000
0000
0000
,
0001
0000
1001
1001
0000
0000
1331
0000
0100
0000
0001
0000
0110
0000
1000
0000
,
0011
0000
0000
0110
0000
0000
1100
0000
0010
0000
1000
0000
0011
0000
0100
1000
,
0010
0100
0001
0010
1000
0100
2021
0000
0100
0000
0001
0000
0100
0000
0000
0000
,
0001
0000
0101
3131
0000
0000
0212
0000
1000
0000
0010
0000
1000
0000
0000
0000
,
0010
0000
1010
1010
0000
0000
1313
0000
0100
0000
0001
0000
1100
0000
0010
0000
,
0101
1000
0110
1101
0010
0100
1010
0100
,
0010
0001
0010
1200
0010
0001
0010
1000
,
0010
0001
0000
2310
0100
0010
0001
0010
,
0100
0010
0000
3120
0001
0100
1000
0100
,
0001
0100
1000
0132
0010
0100
2000
0100
,
0010
0100
0010
3213
0001
0010
1000
0010
,
0001
0010
1000
0321
0100
1000
0100
0001
,
0100
1000
0100
2031
0100
0010
0001
0010
,
0100
0000
0010
0000
0001
0000
3222
0000
0000
0000
0000
0000
2000
0000
0000
0030
,
0310
0100
0010
0100
0010
0103
3111
0000
0110
0000
0110
0000
1001
0000
0000
0000
,
0000
0000
0000
1101
1100
1100
0011
0000
,
0000
0000
0000
0000
0010
0000
0000
0000
0100
0100
0100
0000
1011
0000
0000
0000
0100
0000
0000
0000
0011
0000
0000
0000
1100
0000
0000
0000
1100
0000
0000
0000
,
0000
0110
0000
1101
0010
0101
1010
1010
,
0000
1100
0000
0111
1000
0101
0011
0011
,
0000
0101
0000
1101
0010
0101
0000
0000
,
0110
0110
0000
1001
0000
0000
1111
0000
1000
0000
0100
0000
1010
0000
0101
0000
,
0010
0100
1000
0011
0100
1000
0011
1100
,
0001
0100
0010
1001
0100
1000
0110
1001
,
0100
0001
0010
0101
0010
0100
0011
0101
,
0010
0002
0000
1113
0001
0100
1001
0110
,
0001
0100
0010
1100
0010
0001
1100
0110
,
0001
0000
0010
0000
0100
0000
1011
0000
0100
0010
0001
0000
1010
0000
0101
0000
,
1000
0000
0001
0000
1000
0000
0111
0000
1000
0100
0010
0000
1000
0000
0020
0000
,
0000
0100
0030
0102
0000
1010
0000
0000
,
0110
1103
0000
1020
0000
0101
0000
0000
,
1001
0000
1100
0131
0000
0000
1110
0001
0010
0100
1001
0000
0011
0000
0100
0000
,
1001
0000
0000
1100
0000
0000
0110
0000
0001
0000
0010
0000
1100
0000
0010
0000
,
0001
0000
0010
0100
0000
0000
1022
0000
0100
0000
1000
0000
0100
0000
0000
0000
,
0100
0000
1100
1133
0000
0000
0221
0000
1000
0000
0001
0000
1000
0000
0000
0000
,
0001
0000
1001
1001
0000
0000
1331
0000
0100
0000
0001
0000
1010
0000
0100
0000
,
0011
0000
0000
0110
0000
0000
1001
0000
0100
0000
0010
0000
0101
0000
1000
0000
,
0100
0010
0001
1111
1000
0100
0011
0100
,
1001
0000
0110
0011
0000
0000
1211
0000
0001
0000
0010
0000
1001
0000
1000
0000
,
0011
0000
1000
0000
0010
0000
1311
0000
0011
0110
1100
0010
0001
0100
0010
1000
,
0100
0001
0010
1000
0100
0001
1110
0000
0001
0000
0100
0000
1010
0000
0001
0000
,
0100
0010
1000
1111
0100
0010
1001
0100
,
1010
0000
0011
1100
0000
0000
1012
0000
0100
0000
0010
0000
1100
0000
0010
0000
,
1100
0000
0110
0000
1000
0000
1113
0001
1000
0001
0100
0010
0100
0001
0010
0001
,
1000
0100
1000
0001
0100
0001
1110
0001
0010
0100
1000
0000
0011
0000
0100
0000
,
0010
0000
0001
0000
1000
0000
1111
0000
0100
0000
1000
0000
0011
0000
0100
1000
,
0010
0001
0100
1000
0010
0001
1110
0000
0001
0000
0100
0000
1001
0000
1000
0100
,
0001
0010
1000
0100
0001
0010
1101
0000
0010
0000
1000
0000
0011
0000
0100
0010
,
1000
0001
0100
0010
1000
0001
1110
0000
0001
0000
0010
0000
1100
0000
0001
0100
,
0010
1000
0010
0100
0001
0100
1011
0000
0100
0000
0001
0000
0110
0000
1000
0100
,
0001
0010
1000
0100
0001
0010
1101
0000
0010
0000
1000
0000
0110
0000
0001
1000
,
0010
0100
0001
1000
0010
0100
1011
0000
0100
0000
0010
0000
0101
0000
0010
1000
,
0100
0001
0010
1000
0010
0100
2002
0000
0000
0000
0000
0000
0000
0000
3223
0000
,
0000
0000
0000
0000
0000
0000
1331
0100
0010
0100
1000
0100
0010
0100
0001
0001
,
0001
0100
1000
1000
0100
0010
1101
0010
0001
0100
1000
0010
0100
0001
1000
1000
,
1000
0010
0001
0001
0010
0100
1011
0100
1000
0010
0100
0010
0001
0100
0001
0001
,
0001
0010
1000
1000
0100
0010
1101
0010
0001
0100
0010
0100
1000
0010
0001
0001
,
0001
0100
1000
1000
0100
0010
1101
0010
0001
0010
0100
1000
0100
0010
0001
0001
,
0001
0010
1000
1000
0001
0010
1101
0010
0100
1000
0100
0010
0001
0010
1000
1000
,
1000
0100
0001
0001
0010
0100
1011
0100
1000
0010
0100
0001
0010
0001
1000
1000
,
1000
0100
0001
0001
0100
1000
0111
1000
0010
0100
1000
0010
0100
0010
0001
0001
,
0001
0100
1000
1000
0001
0000
0000
0000
0000
0000
0000
0000
0000
0000
0000
0000
;

//---------------dance-single - ----------------
#NOTES:
     dance-single:
     :
     Easy:
     1:
     0.000,0.000,0.000,0.000,0.000,0.000,0.000,0.000,0.000,0.000:
0000
0000
0000
0000
;

//---------------dance-single - Copied from----------------
#NOTES:
     dance-single:
     Copied from:
     Medium:
     1:
     0.000,0.000,0.000,0.000,0.000,0.000,0.000,0.000,0.000,0.000:
0000
0000
0000
0000
;
